Main Page Sitemap

Last news

A list of all escort services, erotic massage salons, incall apartments, night clubs and more.Lena, ivana, kira, maria 17 minutes ago karolina 150 nice girl 2 hours ago, viki, vanessa.So take a little time, and explore our website.ShowPark market 1..
Read more
Upon defeating the cult members, Frank frees Jennifer and wny escorts takes her to the Security Room.As you'll see, others have turned to their themes, hobbies and interests, and many other things to dream up how to guide their attendees..
Read more

Battle of the sexes dvd release date uk





IL-2 Sturmovik: Battle of Stalingrad in December 2012.
Wav Peak level.6 Track quality.9 Test CRC 657A82ED Copy CRC 657A82ED Copy OK Track 4 Filename what is a male escort definition F:Ludacris04.
See more ยป"s Gail : I think we have just seen some a cappella history being made, John.
I think most individuals would be happy with the slightly lesser R2/4/5.ALL discs, dVD, bLU-RAY 4K BLU-RAY, streaming, august 7, 2018.Riverdale (S2 masters of Sex (The.Ludacris - Sexting (Bonus Track).wav Peak level.5 Track quality.9 Test CRC 68B4DD81 Copy CRC 68B4DD81 Copy OK No errors occurred End of status report Tracklist:.His Girl Friday - they are, on Assignment: His Girl Friday (8:47 Howard Hawks: Reporter's Notebook (3:23 Funny Pages (3:28) and, rosalind Russell: The Inside Scoop (3:14).Ludacris - Feelin' So Sexy.After a disastrous failing at last year's finals, they are forced to regroup.The Death of Superman, revenge, pyewacket, wildling.This expands Battle of Stalingrad with new areas and aircraft keeping most of technology the same.
Additional command line options : -0 -T "artista" -T "titlet" -T "albumg" -T "datey" -T "tracknumbern" -T "genrem".
There are 10-minutes of archival interviews with.
His Girl Friday from 1940 and a teaser and trailer for the film.
Peak level.4, track quality.9 Test CRC 5fceceaa Copy CRC 5fceceaa Copy OK Track 3 Filename F:Ludacris03.Workstation application compatibility fixes.Stick with the R1 but if you don't own it yet, you know what.Wav Peak level.5 Track quality 100.0 Test CRC 6BB065D2 Copy CRC 6BB065D2 Copy OK Track 5 Filename F:Ludacris05.Wav Peak level.7 Track quality 100.0 Test CRC fbafb3D5 Copy CRC fbafb3D5 Copy OK Track 15 Filename F:Ludacris15.Other than the discs are pretty much the same except for some minor details (see Trailers history of brothels in nevada listed above).Ludacris / Battle Of The Sexes.Mighty Morphin Power Rangers (The Complete Series 25th Anniversary), happy Endings (The Complete Series), lowlife, on Chevil Beach, marrowbone.



Used drive : benq DVD DC DW1670 Adapter: 3 ID:.
Ludacris - Can't Live With You.
Certificate: 0, see all certifications parents Guide: View content advisory edit, details, official Sites: Official Facebook, official site.

[L_RANDNUM-10-999]

Top news

Truck stop escorts

If its important to you that she wear stockings and a garter belt, be sure to say that too.She will remove clothes too.Determining that youre not a cop will usually involve getting you into some state of undress, or engaging


Read more

Montana escort

All the other information given is confidential and is to assist us with our own customer service.Most of the time when they show up at your house they were not what you expected.The most important part about finding an escort


Read more

2001 ford escort zx2 performance

Chrome ZX2 (2) ZX2 cool coupe sex dating adelaide (2) ZX2 HOT coupe (2) ZX2 S/R (2).Apparently, that mileage was accrued over a 66-mile route designed to mimic the torturous terrain encountered by prostitution business in thailand racers in the


Read more

Sitemap